Легенда о Зелёном Рыцаре / The Green Knight [2021, Фэнтези, приключения, WEB-DLRip-AVC | Jaskier] - Скачать торрент бесплатно

Новые фильмы сконверченные с blu-ray дисков. HD Фильмы в отличном качестве. Скачать торрент бесплатно вы можете тут.

Модераторы: Новинки кинематографа, Союз Риперов

Новые фильмы сконверченные с blu-ray дисков.HD Фильмы в отличном качестве. Для того чтобы скачать торрент бесплатно можно обойтись без регистрации.
Поделиться ВКонтакте Поделиться Facebook Поделиться Twitter Поделиться Mail.RU
АвторСообщение
wolf1245
Аватара пользователя
Заслуженный
Заслуженный
 
Раздал: 199.27 ТБ
Скачал: 14.07 ТБ
Ратио: 30.594
Сообщения: 4680
Зарегистрирован: 14 апр 2012, 23:34
Откуда: Вильнюс
Награды: 42
За 100 сообщений (1) За 500 сообщений (1) За 1000 сообщений (1) За 1500 сообщений (1) За 2000 сообщений (1) За 3000 сообщений (1) 5 Тб отданного (1) 10 Тб отданного (1) 15 Тб отданного (1) 20 Тб отданного (1) 30 Тб отданного (1) 10 Тб скаченного (1) 15 Тб скаченного (1) 20 Тб скаченного (1) 30 Тб скаченного (1) 50 Тб скаченного (1) Размер созданных раздач 3 Тб (1) Размер созданных раздач 5 Тб (1) Размер созданных раздач 10 Тб (1) Размер созданных раздач 15 Тб (1) 250 релизов (1) 500 релизов (1) 1000 релизов (1) 1500 релизов (1) 2000 релизов (1) 3000 релизов (1) За новинки фильмов (1) За новинки сериалов (1) За новинки музыки (1) За 2000 полученных спасибо (1) За 4000 полученных спасибо (1) За 8000 полученных спасибо (1) За 10000 полученных спасибо (1) За 15000 полученных спасибо (1) За вступление в группу VK (1) За вступление в Telegram (1) 200 кармы (1) 500 кармы (1) 1000 кармы (1) Орден от Админа (1) Халява №3 (1) Верный пользователь (1)

Сообщение wolf1245 » 09 сен 2021, 20:55

Легенда о Зелёном Рыцаре / The Green Knight [2021, Фэнтези, приключения, WEB-DLRip-AVC | Jaskier] - Скачать торрент

Информация о фильме:
Название: Легенда о Зелёном Рыцаре
Оригинальное название: The Green Knight
Год выхода: 2021
Жанр: Фэнтези, приключения
Режиссер: Дэвид Лоури
В ролях: Анаис Риццо, Джо Андерсон, Дев Патель, Алисия Викандер, Ноэль Браун, Сарита Чоудхури, Нита Мишра, Тара МакДонах, Афина Фриззелл, Шон Харрис, Кейт Дики, Крис Макхаллем, Ралф Айнесон, Брендан Конрой, Доннча Краули, Барри Кеоган

Описание: Во времена легенд и магии, когда честь была превыше всего, сэр Гавейн принимает вызов таинственного Зеленого Рыцаря. Теперь наследник Короля Артура, рыцарь Круглого стола, должен покинуть Камелот и отправиться в опасное странствие через проклятые земли.



Страна: Ирландия, Канада, США, Великобритания
Студия: Sailor Bear, BRON Studios, A24
Продолжительность: 02:09:45
Перевод: Профессиональный (многоголосый, закадровый) - Jaskier



Информация о файле:
Кодек: AVC
Формат: MKV
Качество: WEB-DLRip-AVC
Видео: MPEG-4 AVC, 1024x554, 23.976 fps, 2532 kbps
Аудио RU: AC3, 6 ch, 48 kHz, 448 kbps
Субтитры: Русские (full (от FOCS)), английские




x264 info: frame I:1336 Avg QP: 8.94 size:103712
x264 info: frame P:47911 Avg QP:12.57 size: 30518
x264 info: frame B:137409 Avg QP:14.68 size: 6277
General
Unique ID : 39552497917522717680230175304891631986 (0x1DC188B4F9BACB0829EF63191DE20972)
Complete name : D:\uTorrent\Рипы wolf1245\The.Green.Knight.2021.MVO.Jaskier.WEB-DLRip-AVC.[=wolf1245.MediaBit=].mkv
Format : Matroska
Format version : Version 4
File size : 2.68 GiB
Duration : 2 h 9 min
Overall bit rate : 2 962 kb/s
Movie name : The.Green.Knight.2021.MVO.Jaskier.WEB-DLRip-AVC.[=wolf1245.MediaBit=]
Encoded date : UTC 2021-09-09 17:49:46
Writing application : mkvmerge v61.0.0 ('So') 64-bit
Writing library : libebml v1.4.2 + libmatroska v1.6.4

Video
ID : 1
Format : AVC
Format/Info : Advanced Video Codec
Format profile : High@L4.1
Format settings : CABAC / 14 Ref Frames
Format settings, CABAC : Yes
Format settings, Reference frames : 14 frames
Codec ID : V_MPEG4/ISO/AVC
Duration : 2 h 9 min
Bit rate : 2 532 kb/s
Width : 1 024 pixels
Height : 554 pixels
Display aspect ratio : 1.85:1
Frame rate mode : Constant
Frame rate : 23.976 (24000/1001) FPS
Color space : YUV
Chroma subsampling : 4:2:0
Bit depth : 8 bits
Scan type : Progressive
Bits/(Pixel*Frame) : 0.186
Stream size : 2.29 GiB (85%)
Title : -=[wolf1245.MediaBit]=-
Writing library : x264 core 161 r3020 d198931
Encoding settings : cabac=1 / ref=14 / deblock=1:-3:-2 / analyse=0x3:0x133 / me=umh / subme=10 / psy=1 / psy_rd=1.00:0.20 / mixed_ref=1 / me_range=32 / chroma_me=1 / trellis=2 / 8x8dct=1 / cqm=0 / deadzone=21,11 / fast_pskip=1 / chroma_qp_offset=-3 / threads=10 / lookahead_threads=2 / sliced_threads=0 / nr=0 / decimate=1 / interlaced=0 / bluray_compat=0 / constrained_intra=0 / bframes=12 / b_pyramid=2 / b_adapt=2 / b_bias=0 / direct=3 / weightb=1 / open_gop=0 / weightp=2 / keyint=240 / keyint_min=24 / scenecut=40 / intra_refresh=0 / rc_lookahead=60 / rc=2pass / mbtree=1 / bitrate=2532 / ratetol=1.0 / qcomp=0.60 / qpmin=0 / qpmax=69 / qpstep=4 / cplxblur=20.0 / qblur=0.5 / vbv_maxrate=50000 / vbv_bufsize=62500 / nal_hrd=none / filler=0 / ip_ratio=1.40 / aq=3:0.80
Language : English
Default : Yes
Forced : No
Color range : Limited
Color primaries : BT.709
Transfer characteristics : BT.709
Matrix coefficients : BT.709

Audio
ID : 2
Format : AC-3
Format/Info : Audio Coding 3
Commercial name : Dolby Digital
Codec ID : A_AC3
Duration : 2 h 4 min
Bit rate mode : Constant
Bit rate : 448 kb/s
Channel(s) : 6 channels
Channel layout : L R C LFE Ls Rs
Sampling rate : 48.0 kHz
Frame rate : 31.250 FPS (1536 SPF)
Compression mode : Lossy
Stream size : 398 MiB (14%)
Title : [MVO] Jaskier | KinoPub
Language : Russian
Service kind : Complete Main
Default : Yes
Forced : No

Text #1
ID : 3
Format : UTF-8
Codec ID : S_TEXT/UTF8
Codec ID/Info : UTF-8 Plain Text
Duration : 2 h 4 min
Bit rate : 35 b/s
Count of elements : 788
Stream size : 32.5 KiB (0%)
Title : [Full]от FOCS
Language : Russian
Default : No
Forced : No

Text #2
ID : 4
Format : UTF-8
Codec ID : S_TEXT/UTF8
Codec ID/Info : UTF-8 Plain Text
Duration : 2 h 5 min
Bit rate : 21 b/s
Count of elements : 829
Stream size : 19.9 KiB (0%)
Language : English
Default : No
Forced : No

Text #3
ID : 5
Format : UTF-8
Codec ID : S_TEXT/UTF8
Codec ID/Info : UTF-8 Plain Text
Duration : 2 h 8 min
Bit rate : 31 b/s
Count of elements : 1238
Stream size : 29.6 KiB (0%)
Title : SDH
Language : English
Default : No
Forced : No



Релиз от: &

Автор релиза:
Как качать, Как раздавать - Правила и инструкции
Торрент09 сен 2021, 20:55 [ 09 сен 2021, 20:55 ]

СКАЧАТЬ с просмотром рекламы
СтатусПроверен -=Robbertta=-
.torrent скачан0 раз
Размер2.68 ГБ (2 882 592 797)


Вернуться в BDRip/HDRip



Кто сейчас на конференции

Сейчас этот форум просматривают: leoshu

Ресурс не предоставляет электронные версии произведений, а занимается лишь коллекционированием и каталогизацией ссылок, присылаемых и публикуемых на форуме нашими читателями. Если вы являетесь правообладателем какого-либо представленного материала и не желаете чтобы ссылка на него находилась в нашем каталоге, свяжитесь с нами и мы незамедлительно удалим её. Файлы для обмена на трекере предоставлены пользователями сайта, и администрация не несёт ответственности за их содержание. Просьба не заливать файлы, защищенные авторскими правами, а также файлы нелегального содержания!