Талисман | 1-10 серии из 10 [2021, Мелодрама, комедия, WEBRip 1080p] - Скачать торрент бесплатно

Модераторы: Модераторы Сериалы, мультсериалы, Союз Риперов

Поделиться ВКонтакте Поделиться Facebook Поделиться Twitter Поделиться Mail.RU
АвторСообщение
VLAD71
Аватара пользователя
Тоp Releaser
Тоp Releaser
 
Раздал: 147.51 ТБ
Скачал: 40.93 ТБ
Ратио: 624.757
Сообщения: 218
Зарегистрирован: 17 дек 2017, 05:16
Награды: 11
За 100 сообщений (1) 5 Тб отданного (1) 10 Тб отданного (1) 15 Тб отданного (1) 20 Тб отданного (1) 30 Тб отданного (1) 10 Тб скаченного (1) 15 Тб скаченного (1) 20 Тб скаченного (1) 30 Тб скаченного (1) За новинки сериалов (1)

Сообщение VLAD71 » 06 сен 2021, 19:49

Талисман | 1-10 серии из 10 [2021, Мелодрама, комедия, WEBRip 1080p] - Скачать торрент

Название: Талисман
Год выхода: 2021
Жанр: Мелодрама, комедия
Режиссер: Анарио Мамедов
В ролях: Михаил Башкатов, Анастасия Евграфова, Дмитрий Блохин, Егор Вадов, Евгений Банифатов, Вячеслав Хархота

О сериале: Главный герой работает следователем в полиции, но его постоянно преследуют неудачи - и на работе, и в личной жизни. Однажды к нему обращается молодая женщина, которая утверждает, что будет приносить ему удачу, но есть одно условие: нужно беспрекословно следовать всем её указаниям. Сначала Пётр отказывается от такого странного предложения, но в скором времени вынужден согласиться на помощь Алёны…

Страна: Россия
Студия: Кинокомпания "Epic media"
Продолжительность: ~00:10:30
Перевод: Не требуется
Субтитры: Нет



Файл
Формат: MKV
Качество: WEBRip (1080p)

Видео: MPEG-4 AVC, ~ 1339 Кбит/с, 1920x1080
Аудио: AC3, 2 ch, 192 Кбит/с


1 серия "Награда нашла героя"
2 серия "Котёнок на выданье"
3 серия "Яблоко раздора"
4 серия "Кабанчик с секретом"
5 серия "Я от бабушки ушёл, я от дедушки ушёл"
6 серия "Бетонный костюмчик"
7 серия "Ля мажор"
8 серия "Ва-банк"
9 серия "Ва-банк"
10 серия "Всем сестрам по серьгам"
Общее
Уникальный идентификатор : 169677442633883082354244550148197374486 (0x7FA6AFCFDE369F1F9DB9968FAB9ADA16)
Полное имя : ТАЛИСМАН - Серия 1 «Награда нашла героя».mkv
Формат : Matroska
Версия формата : Version 4
Размер файла : 119 Мбайт
Продолжительность : 10 м. 49 с.
Общий поток : 1 532 Кбит/сек
Дата кодирования : UTC 2021-09-06 16:11:02
Программа кодирования : mkvmerge v61.0.0 ('So') 64-bit
Библиотека кодирования : libebml v1.4.2 + libmatroska v1.6.4

Видео
Идентификатор : 1
Формат : AVC
Формат/Информация : Advanced Video Codec
Профиль формата : High@L4
Настройки формата : CABAC / 3 Ref Frames
Параметр CABAC формата : Да
Параметр RefFrames формата : 3 кадра
Идентификатор кодека : V_MPEG4/ISO/AVC
Продолжительность : 10 м. 49 с.
Битрейт : 1 339 Кбит/сек
Ширина : 1 920 пикселей
Высота : 1 080 пикселей
Соотношение сторон : 16:9
Режим частоты кадров : Постоянный
Частота кадров : 25, 000 кадров/сек
Цветовое пространство : YUV
Субдискретизация насыщенности : 4:2:0
Битовая глубина : 8 бит
Тип развёртки : Прогрессивная
Бит/(Пиксели*Кадры) : 0.026
Размер потока : 104 Мбайт (87%)
Библиотека кодирования : x264 core 155 r2901 7d0ff22
Default : Да
Forced : Нет
Цветовой диапазон : Limited
Основные цвета : BT.709
Характеристики трансфера : BT.709
Коэффициенты матрицы : BT.709

Аудио
Идентификатор : 2
Формат : AC-3
Формат/Информация : Audio Coding 3
Коммерческое название : Dolby Digital
Идентификатор кодека : A_AC3
Продолжительность : 10 м. 49 с.
Вид битрейта : Постоянный
Битрейт : 192 Кбит/сек
Каналы : 2 канала
Channel layout : L R
Частота : 48, 0 КГц
Частота кадров : 31, 250 кадров/сек (1536 SPF)
Метод сжатия : С потерями
Размер потока : 14, 9 Мбайт (13%)
Default : Да
Forced : Нет

Как качать, Как раздавать - Правила и инструкции
Торрент10 сен 2021, 11:38 [ 10 сен 2021, 11:38 ]

СКАЧАТЬ с просмотром рекламы
СтатусОбновлён
.torrent скачан666 раз
Размер1.26 ГБ (1 350 059 757)

Вернуться в !!! Полные завершенные сериалы !!!



Кто сейчас на конференции

Сейчас этот форум просматривают: Golov.home@mail.ru

Ресурс не предоставляет электронные версии произведений, а занимается лишь коллекционированием и каталогизацией ссылок, присылаемых и публикуемых на форуме нашими читателями. Если вы являетесь правообладателем какого-либо представленного материала и не желаете чтобы ссылка на него находилась в нашем каталоге, свяжитесь с нами и мы незамедлительно удалим её. Файлы для обмена на трекере предоставлены пользователями сайта, и администрация не несёт ответственности за их содержание. Просьба не заливать файлы, защищенные авторскими правами, а также файлы нелегального содержания!