Казаки / Серия 1-16 из 16 / [2016, Детектив, приключения, HDTVRip] - Скачать торрент бесплатно

Казаки

Модераторы: Кандидат в Союз Риперов, Модераторы Сериалы, мультсериалы, Союз Риперов

Казаки
Поделиться ВКонтакте Поделиться Facebook Поделиться Twitter Поделиться Mail.RU
АвторСообщение
Vadim
Аватара пользователя
Супермодератор
Супермодератор
 
Раздал: 103.71 ТБ
Скачал: 24.72 ТБ
Ратио: 425.076
Сообщения: 4897
Зарегистрирован: 10 фев 2011, 03:13
Откуда: Заб.край, г.Чита
Награды: 42
За 100 сообщений (1) За 500 сообщений (1) За 1000 сообщений (1) За 1500 сообщений (1) За 2000 сообщений (1) За 3000 сообщений (1) 5 Тб отданного (1) 10 Тб отданного (1) 15 Тб отданного (1) 20 Тб отданного (1) 30 Тб отданного (1) 10 Тб скаченного (1) 15 Тб скаченного (1) 20 Тб скаченного (1) Размер созданных раздач 3 Тб (1) Размер созданных раздач 5 Тб (1) Размер созданных раздач 10 Тб (1) Размер созданных раздач 15 Тб (1) 250 релизов (1) 500 релизов (1) 1000 релизов (1) 1500 релизов (1) 2000 релизов (1) 3000 релизов (1) За новинки фильмов (1) За новинки сериалов (1) За 1000 сказанных спасибо (1) За 2000 сказанных спасибо (1) За 3000 сказанных спасибо (1) За 5000 сказанных спасибо (1) За 10000 сказанных спасибо (1) За 2000 полученных спасибо (1) За 4000 полученных спасибо (1) За 8000 полученных спасибо (1) За 10000 полученных спасибо (1) За 15000 полученных спасибо (1) За вступление в группу VK (1) 200 кармы (1) 500 кармы (1) 1000 кармы (1) Халява №1 (1) Верный пользователь (1)

Сообщение Vadim » 11 дек 2016, 16:53

Казаки / Серия 1-16 из 16 / [2016, Детектив, приключения, HDTVRip] - Скачать торрент

Информация о фильме
Оригинальное название: Казаки
Год выпуска: 2016
Жанр: Детектив, приключения
Режиссер: Станислав Мареев
В ролях: Антон Пампушный, Владимир Гостюхин, Евгений Сидихин, Полина Сидихина, Андрей Ильин, Олег Морозов, Алексей Гришин, Владислав Дёмин, Карина Реука, Ирина Основина, Олег Метелев, Игорь Скрипко, Виктория Полторак, Лилия Кондрова, Елена Аросьева, Екатерина Долгова, Олег Радченко

О фильме:
Майор полиции Егор Даурский в частном порядке расследует убийство своего друга полковника полиции и его жены, в станице Краснодарского края. Здесь он сталкивается с беспределом местной преступной группировки под предводительством некоего Сурового. Также он знакомится с местными казаками и их атаманом Петром Лазаревым, которые противостоят откровенному беспределу властей и криминала. Даурскому удаётся раскрыть убийство друга и наказать виновных. Завершив дело, он возвращается в Москву для того, чтобы перевестись в станицу. Вместе с казаками он надеется избавить местечко от Сурового и его группировки.



Страна: Россия
Студия: Кинокомпания «Star Media»
Продолжительность: 16 x ~ 00:45:00
Перевод: Не требуется

Файл
Формат: avi
Качество: HDTVRip
Видео: XviD build 73, 592x336 (16:9), 25.000 fps, ~ 750 Kbps (~ 0.150 bit/pixel)
Звук: 48.0 kHz, MP3, 2/0 ch, 128 kbps
Субтитры: нет

General
Complete name : Kazaki.2016.XviD.HDTVRip.GeneralFilm\Kazaki.02.avi
Format : AVI
Format/Info : Audio Video Interleave
File size : 279 MiB
Duration : 44mn 10s
Overall bit rate : 884 Kbps
Writing application : VirtualDubMod 1.5.10.3 | http://www.virtualdub-fr.org || (build 2550/release)
Writing library : VirtualDubMod build 2550/release

Video
ID : 0
Format : MPEG-4 Visual
Format profile : Advanced Simple@L5
Format settings, BVOP : 1
Format settings, QPel : Yes
Format settings, GMC : No warppoints
Format settings, Matrix : Custom
Codec ID : XVID
Codec ID/Hint : XviD
Duration : 44mn 10s
Bit rate : 746 Kbps
Width : 592 pixels
Height : 336 pixels
Display aspect ratio : 16:9
Frame rate : 25.000 fps
Color space : YUV
Chroma subsampling : 4:2:0
Bit depth : 8 bits
Scan type : Progressive
Compression mode : Lossy
Bits/(Pixel*Frame) : 0.150
Stream size : 236 MiB (84%)
Writing library : XviD 73

Audio
ID : 1
Format : MPEG Audio
Format version : Version 1
Format profile : Layer 3
Codec ID : 55
Codec ID/Hint : MP3
Duration : 44mn 10s
Bit rate mode : Constant
Bit rate : 128 Kbps
Channel(s) : 2 channels
Sampling rate : 48.0 KHz
Compression mode : Lossy
Stream size : 40.4 MiB (14%)
Alignment : Aligned on interleaves
Interleave, duration : 40 ms (1.00 video frame)
Interleave, preload duratio : 504 ms
Writing library : LAME3.99r
Encoding settings : -m s -V 4 -q 0 -lowpass 17 -b 128






Как качать, Как раздавать - Правила и инструкции
Торрент11 дек 2016, 16:53 [ 11 дек 2016, 16:53 ]

СКАЧАТЬ с просмотром рекламы
СтатусПроверен Vadim
.torrent скачан7144 раз
Размер4.36 ГБ (4 680 161 280)



dukat

Аватара пользователя
Специалист
Специалист
 

Сообщения: 212

Зарегистрирован: 20 ноя 2014, 18:55

Награды: 4
За 100 сообщений (1) За 1000 сказанных спасибо (1) За вступление в группу VK (1) За вступление в Telegram (1)

Сообщение dukat» 12 дек 2016, 01:41

Песня в конце очень понравилаь,пробывал в инете найти,не смог..((((


Вернуться в Казаки



Кто сейчас на конференции

Сейчас этот форум просматривают: нет зарегистрированных пользователей

Ресурс не предоставляет электронные версии произведений, а занимается лишь коллекционированием и каталогизацией ссылок, присылаемых и публикуемых на форуме нашими читателями. Если вы являетесь правообладателем какого-либо представленного материала и не желаете чтобы ссылка на него находилась в нашем каталоге, свяжитесь с нами и мы незамедлительно удалим её. Файлы для обмена на трекере предоставлены пользователями сайта, и администрация не несёт ответственности за их содержание. Просьба не заливать файлы, защищенные авторскими правами, а также файлы нелегального содержания!